Posted on Jun - 24 - 2012
Posted by abuo omar
Categories Uncategorized

Euro 2012 : Spain v. France 23-6-2012 in HD 720p 5Mbps Full Match Download

English Commentary

TRT HD

————————————————————————

General

Format : Matroska
Format version : Version 2
Duration : 46mn 14s
Overall bit rate mode : Variable
Overall bit rate : 5 387 Kbps

Video

Format : AVC
Format/Info : Advanced Video Codec
Format profile : Main@L4.0
Format settings, CABAC : Yes
Format settings, ReFrames : 4 frames
Format settings, GOP : M=4, N=32
Codec ID : V_MPEG4/ISO/AVC
Duration : 46mn 14s
Bit rate mode : Variable
Bit rate : 4 896 Kbps
Maximum bit rate : 20.0 Mbps
Width : 1 280 pixels
Height : 720 pixels
Display aspect ratio : 16:9
Frame rate : 50.000 fps
Color space : YUV
Chroma subsampling : 4:2:0
Bit depth : 8 bits
Scan type : Progressive
Bits/(Pixel*Frame) : 0.106
Stream size : 1.58 GiB (91%)

Audio

Format : AC-3
Format/Info : Audio Coding 3
Mode extension : CM (complete main)
Format settings, Endianness : Big
Codec ID : A_AC3
Duration : 46mn 14s
Bit rate mode : Constant
Bit rate : 384 Kbps
Channel(s) : 2 channels
Channel positions : Front: L R
Sampling rate : 48.0 KHz
Bit depth : 16 bits
Compression mode : Lossy
Delay relative to video : 4ms
Stream size : 127 MiB (7%)

File size : 3.5 GiB

————————————————————————

downloaddr

 

 

FIRST HALF SINGLE LINK

 

http://www.filesm.net/L0/Spain-v.-France-HD-720pEuro-QF323-06-121stfullmatches.net.mkv

 

SECOND HALF SINGLE LINK

http://www.filesm.net/L1/Spain-v.-France-HD-720pEuro-QF323-06-122ndfullmatches.net.mkv

 

uploadedh
FIRST HALF

Spain v. France HD 720p_Euro – QF3_23-06-12_1st_fullmatches.net.part1.rar

Spain v. France HD 720p_Euro – QF3_23-06-12_1st_fullmatches.net.part2.rar

 

SECOND HALF

Spain v. France HD 720p_Euro – QF3_23-06-12_2nd_fullmatches.net.part1.rar

Spain v. France HD 720p_Euro – QF3_23-06-12_2nd_fullmatches.net.part2.rar

 

————————————————————————————————-

SD 800 MB

Spain vs France 23 June 2012 Full Match

 

———————————————————————————————

Leave a Reply