Follow us on Facebook

 

 

Posted on Jun - 28 - 2012
Posted by abuo omar

Euro 2012 : Portugal v. Spain 27-6-2012 in HD 720p 5Mbps 50fps Full Match Download

English Commentary

TRT HD

————————————————————————

General

Format : Matroska
Format version : Version 2
Duration : 46mn 14s
Overall bit rate mode : Variable
Overall bit rate : 5 387 Kbps

Video

Format : AVC
Format/Info : Advanced Video Codec
Format profile : Main@L4.0
Format settings, CABAC : Yes
Format settings, ReFrames : 4 frames
Format settings, GOP : M=4, N=32
Codec ID : V_MPEG4/ISO/AVC
Duration : 46mn 14s
Bit rate mode : Variable
Bit rate : 4 896 Kbps
Maximum bit rate : 20.0 Mbps
Width : 1 280 pixels
Height : 720 pixels
Display aspect ratio : 16:9
Frame rate : 50.000 fps
Color space : YUV
Chroma subsampling : 4:2:0
Bit depth : 8 bits
Scan type : Progressive
Bits/(Pixel*Frame) : 0.106
Stream size : 1.58 GiB (91%)

Audio

Format : AC-3
Format/Info : Audio Coding 3
Mode extension : CM (complete main)
Format settings, Endianness : Big
Codec ID : A_AC3
Duration : 46mn 14s
Bit rate mode : Constant
Bit rate : 384 Kbps
Channel(s) : 2 channels
Channel positions : Front: L R
Sampling rate : 48.0 KHz
Bit depth : 16 bits
Compression mode : Lossy
Delay relative to video : 4ms
Stream size : 127 MiB (7%)

File size : 3.5 GiB

————————————————————————

downloaddr

 

 

FIRST HALF SINGLE LINK

 

http://www.filesm.net/vf/PortugalvsSpainHD720pEuro-27-6-20121stfullmatches.net.mkv

 

 

SECOND HALF SINGLE LINK

http://www.filesm.net/vg/PortugalvsSpainHD720pEuro-27-6-20122ndfullmatches.net.mkv

EXTRA TIME + PENALTIES (if any)

http://www.filesm.net/vh/PortugalvsSpainHD720pEuro-27-6-2012EXTRA-TIME+PENALTIESfullmatches.net.rar

 

uploadedh
FIRST HALF

 

Portugal_vs_Spain_HD720p_Euro-27-6-2012_2nd_fullmatches.net.part1.rar

Portugal_vs_Spain_HD720p_Euro-27-6-2012_2nd_fullmatches.net.part2.rar

SECOND HALF

Portugal_vs_Spain_HD720p_Euro-27-6-2012_1st_fullmatches.net.part1.rar

Portugal_vs_Spain_HD720p_Euro-27-6-2012_1st_fullmatches.net.part2.rar

EXTRA TIME + PENALTIES (if any)

Portugal_vs_Spain_HD720p_Euro-27-6-2012_EXTRA TIME+PENALTIES_fullmatches.net.part1.rar

Portugal_vs_Spain_HD720p_Euro-27-6-2012_EXTRA TIME+PENALTIES_fullmatches.net.part2.rar

 

————————————————————————————————-

SD 800 MB

 

Portugal vs Spain 27 June 2012 Full Match

 

———————————————————————————————

Comments are closed.