Posted on Jun - 23 - 2012
Posted by abuo omar
Categories Uncategorized

Euro 2012 : Germany v. Greece 22-6-2012 in HD 720p 5Mbps Full Match Download

English Commentary

TRT HD

————————————————————————

General

Format : Matroska
Format version : Version 2
Duration : 47mn 19s
Overall bit rate mode : Variable
Overall bit rate : 5 388 Kbps

Video
ID : 1
Format : AVC
Format/Info : Advanced Video Codec
Bit rate mode : Variable
Bit rate : 5000 Kbps
Maximum bit rate : 20.0 Mbps
Width : 1 280 pixels
Height : 720 pixels
Display aspect ratio : 16:9
Frame rate : 50.000 fps
Chroma subsampling : 4:2:0
Bit depth : 8 bits
Scan type : Progressive
Bits/(Pixel*Frame) : 0.106
Stream size : 1.62 GiB (91%)

Audio
ID : 2
Format : AC-3
Codec ID : A_AC3
Bit rate mode : Constant
Bit rate : 384 Kbps
Channel(s) : 2 channels
Channel positions : Front: L R
Sampling rate : 48.0 KHz
Bit depth : 16 bits
Stream size : 130 MiB (7%)

File size : 3.5 GiB

————————————————————————

downloaddr

 

 

FIRST HALF SINGLE LINK

 

http://www.filesm.net/KU/GermanyvsGreece-QF2-720p-21-06-121stfullmatches.net.mkv

 

SECOND HALF SINGLE LINK

 

 

http://www.filesm.net/KV/GermanyvsGreece-QF2-720p-21-06-122ndfullmatches.net.mkv

 

uploadedh
FIRST HALF

Germanyvs_Greece_ QF2 – 720p – 21-06-12_1st_fullmatches.net.part1.rar

Germanyvs_Greece_ QF2 – 720p – 21-06-12_1st_fullmatches.net.part2.rar

 

SECOND HALF

Germanyvs_Greece_ QF2 – 720p – 21-06-12_2nd_fullmatches.net.part1.rar

Germanyvs_Greece_ QF2 – 720p – 21-06-12_2nd_fullmatches.net.part2.rar

 

————————————————————————————————-

SD 800 MB

Germany vs Greece 22 June 2012 Full Match

 

———————————————————————————————

Leave a Reply